<?xml version="1.0" standalone="no"?>
<!DOCTYPE svg PUBLIC "-//W3C//DTD SVG 1.1//EN" "http://www.w3.org/Graphics/SVG/1.1/DTD/svg11.dtd" >
<svg xmlns="http://www.w3.org/2000/svg">
<metadata>Generated by IcoMoon</metadata>
<defs>
<font id="custom-font-icon" horiz-adv-x="1024">
<font-face units-per-em="1024" ascent="870.4" descent="-153.6" />
<missing-glyph horiz-adv-x="1024" />
<glyph unicode="&#x20;" horiz-adv-x="0" d="" />
<glyph unicode="&#x25b6;" glyph-name="play" horiz-adv-x="543" d="M513.024 385.024q14.336-11.264 14.336-26.624 0-13.312-14.336-24.576l-438.272-272.384q-25.6-16.384-42.496-5.632t-16.896 40.448v526.336q0 29.696 16.896 40.448t42.496-5.632l438.272-272.384z" />
<glyph unicode="&#x2630;" glyph-name="menu" horiz-adv-x="748" d="M680.96 409.6q21.504 0 36.352-15.36t14.848-35.84-15.872-35.84-35.328-15.36h-614.4q-19.456 0-35.328 15.36t-15.872 35.84 14.848 35.84 36.352 15.36h614.4zM66.56 512q-19.456 0-35.328 15.36t-15.872 35.84 14.848 35.84 36.352 15.36h614.4q21.504 0 36.352-15.36t14.848-35.84-15.872-35.84-35.328-15.36h-614.4zM680.96 204.8q21.504 0 36.352-15.36t14.848-35.84-15.872-35.84-35.328-15.36h-614.4q-19.456 0-35.328 15.36t-15.872 35.84 14.848 35.84 36.352 15.36h614.4z" />
<glyph unicode="&#x270e;" glyph-name="pencil" horiz-adv-x="829" d="M798.72 630.784q15.36-32.768 15.36-49.152v-16.384q-92.16-92.16-555.008-552.96l-243.712-53.248 51.2 245.76q462.848 460.8 555.008 552.96 55.296 12.288 129.024-61.44 32.768-32.768 48.128-65.536zM244.736 40.96l24.576 24.576q-1.024 45.056-53.248 96.256-20.48 20.48-46.080 35.84-22.528 13.312-35.84 13.312l-14.336 2.048-22.528-24.576-18.432-81.92q57.344-31.744 83.968-83.968l81.92 18.432z" />
<glyph unicode="&#x2795;" glyph-name="plus-circled" horiz-adv-x="891" d="M749.568 662.528q125.952-125.952 125.952-304.128t-125.952-304.128-304.128-125.952-304.128 125.952-125.952 304.128 125.952 304.128 304.128 125.952 304.128-125.952zM498.688 307.2h204.8v104.448h-204.8v206.848h-104.448v-206.848h-206.848v-104.448h206.848v-206.848h104.448v206.848z" />
<glyph unicode="&#x27f3;" glyph-name="cw" horiz-adv-x="993" d="M433.152 778.24q172.032 0 293.888-118.784 120.832-118.784 125.952-288.768h124.928l-188.416-210.944-188.416 210.944h147.456q-5.12 128-96.256 215.040-93.184 88.064-219.136 88.064-129.024 0-221.184-92.16t-92.16-223.232q0-129.024 92.16-221.184t221.184-92.16q106.496 0 186.368 61.44l71.68-77.824q-111.616-90.112-258.048-90.112-172.032 0-294.912 122.88t-122.88 296.96 122.88 296.96 294.912 122.88v0z" />
<glyph unicode="&#xe000;" glyph-name="error" d="M554 299.333v256h-84v-256h84zM554 127.333v86h-84v-86h84zM512 767.333c236 0 426-190 426-426s-190-426-426-426-426 190-426 426 190 426 426 426z" />
<glyph unicode="&#xe002;" glyph-name="report_problem" d="M554 255.333v172h-84v-172h84zM554 85.333v86h-84v-86h84zM42-42.667l470 810 470-810h-940z" />
<glyph unicode="&#xe005;" glyph-name="list" horiz-adv-x="748" d="M117.76 204.8q19.456 0 35.328-15.36t15.872-35.84-15.872-35.84-35.328-15.36h-51.2q-19.456 0-35.328 15.36t-15.872 35.84 14.848 35.84 36.352 15.36h51.2zM117.76 409.6q19.456 0 35.328-15.36t15.872-35.84-15.872-35.84-35.328-15.36h-51.2q-19.456 0-35.328 15.36t-15.872 35.84 14.848 35.84 36.352 15.36h51.2zM117.76 614.4q19.456 0 35.328-15.36t15.872-35.84-15.872-35.84-35.328-15.36h-51.2q-19.456 0-35.328 15.36t-15.872 35.84 14.848 35.84 36.352 15.36h51.2zM322.56 512q-19.456 0-35.328 15.36t-15.872 35.84 15.872 35.84 35.328 15.36h358.4q21.504 0 36.352-15.36t14.848-35.84-15.872-35.84-35.328-15.36h-358.4zM680.96 409.6q21.504 0 36.352-15.36t14.848-35.84-15.872-35.84-35.328-15.36h-358.4q-19.456 0-35.328 15.36t-15.872 35.84 15.872 35.84 35.328 15.36h358.4zM680.96 204.8q21.504 0 36.352-15.36t14.848-35.84-15.872-35.84-35.328-15.36h-358.4q-19.456 0-35.328 15.36t-15.872 35.84 15.872 35.84 35.328 15.36h358.4z" />
<glyph unicode="&#xe147;" glyph-name="add_circle" d="M726 299.333v84h-172v172h-84v-172h-172v-84h172v-172h84v172h172zM512 767.333c236 0 426-190 426-426s-190-426-426-426-426 190-426 426 190 426 426 426z" />
<glyph unicode="&#xe24d;" glyph-name="insert_drive_file" d="M554 469.333h236l-236 234v-234zM256 767.333h342l256-256v-512c0-46-40-84-86-84h-512c-46 0-86 38-86 84l2 684c0 46 38 84 84 84z" />
<glyph unicode="&#xe254;" glyph-name="mode_edit" d="M884 553.333l-78-78-160 160 78 78c16 16 44 16 60 0l100-100c16-16 16-44 0-60zM128 117.333l472 472 160-160-472-472h-160v160z" />
<glyph unicode="&#xe313;" glyph-name="keyboard_arrow_down" d="M316 519.333l196-196 196 196 60-60-256-256-256 256z" />
<glyph unicode="&#xe314;" glyph-name="keyboard_arrow_left" d="M658 167.333l-60-60-256 256 256 256 60-60-196-196z" />
<glyph unicode="&#xe315;" glyph-name="keyboard_arrow_right" d="M366 155.333l196 196-196 196 60 60 256-256-256-256z" />
<glyph unicode="&#xe316;" glyph-name="keyboard_arrow_up" d="M316 195.333l-60 60 256 256 256-256-60-60-196 196z" />
<glyph unicode="&#xe408;" glyph-name="chevron_left" d="M658 537.333l-196-196 196-196-60-60-256 256 256 256z" />
<glyph unicode="&#xe409;" glyph-name="chevron_right" d="M426 597.333l256-256-256-256-60 60 196 196-196 196z" />
<glyph unicode="&#xe54c;" glyph-name="local_mall" d="M512 299.333c118 0 214 94 214 212h-86c0-70-58-128-128-128s-128 58-128 128h-86c0-118 96-212 214-212zM512 725.333c-70 0-128-58-128-128h256c0 70-58 128-128 128zM810 597.333c46 0 86-40 86-86v-512c0-46-40-84-86-84h-596c-46 0-86 38-86 84v512c0 46 40 86 86 86h84c0 118 96 214 214 214s214-96 214-214h84z" />
<glyph unicode="&#xe54e;" glyph-name="local_offer" d="M234 555.333c36 0 64 28 64 64s-28 64-64 64-64-28-64-64 28-64 64-64zM914 359.333c16-16 24-36 24-60s-8-44-24-60l-300-300c-16-16-36-24-60-24s-44 8-60 24l-384 384c-16 16-24 36-24 60v300c0 46 38 84 84 84h300c24 0 44-8 60-24z" />
<glyph unicode="&#xe5c5;" glyph-name="arrow_drop_down" d="M298 427.333h428l-214-214z" />
<glyph unicode="&#xe5cd;" glyph-name="clear" d="M810 579.333l-238-238 238-238-60-60-238 238-238-238-60 60 238 238-238 238 60 60 238-238 238 238z" />
<glyph unicode="&#xe70a;" glyph-name="eye" d="M527.36 645.12q90.112 0 178.688-25.088t146.944-64q118.784-79.872 165.888-151.552 20.48-32.768 20.48-46.080t-20.48-45.056q-50.176-75.776-165.888-152.576-58.368-38.912-146.944-64t-178.688-25.088-178.688 25.088-146.944 64q-113.664 73.728-165.888 152.576-20.48 31.744-20.48 45.056t20.48 46.080q49.152 75.776 165.888 151.552 58.368 38.912 146.944 64t178.688 25.088zM688.128 203.776q66.56 64.512 66.56 154.624 0 92.16-66.56 156.672-65.536 64.512-160.768 64.512t-160.768-64.512q-66.56-64.512-66.56-156.672 0-90.112 66.56-154.624 65.536-64.512 160.768-64.512t160.768 64.512zM527.36 358.4q8.192-8.192 37.888-2.048 11.264 2.048 28.672 6.144t22.528 5.12q21.504 4.096 25.6-9.216 0-45.056-34.304-76.8t-80.384-31.744-79.36 31.744-33.28 76.8q0 47.104 32.768 78.848t79.872 31.744q5.12 0 7.68-3.072t3.072-9.216 0-11.776-3.072-14.336-3.584-13.312-3.072-11.776l-3.072-8.192q-8.192-25.6 2.048-38.912v0z" />
<glyph unicode="&#xe712;" glyph-name="reply" horiz-adv-x="952" d="M936.96 10.24q-88.064 155.648-212.992 201.728-123.904 46.080-337.92 46.080v-223.232l-370.688 342.016 370.688 329.728v-196.608q90.112 0 170.496-27.648t135.68-71.68q112.64-90.112 168.96-203.776 58.368-119.808 69.632-167.936l6.144-28.672z" />
<glyph unicode="&#xe715;" glyph-name="export" d="M15.36 573.44q0 22.528 14.336 36.864t36.864 14.336h294.912q-66.56-50.176-100.352-90.112l-10.24-12.288h-133.12v-460.8h665.6v57.344l102.4 83.968v-192.512q0-20.48-15.872-35.84t-35.328-15.36h-768q-19.456 0-35.328 15.36t-15.872 35.84v563.2zM699.392 417.792q-168.96 0-247.808-41.984-76.8-40.96-163.84-185.344 0 73.728 32.768 160.768 16.384 44.032 49.152 90.624t67.584 75.264q43.008 35.84 113.664 58.368t148.48 22.528v159.744l339.968-256-339.968-266.24v182.272z" />
<glyph unicode="&#xe718;" glyph-name="comment" horiz-adv-x="850" d="M732.16 716.8q43.008 0 72.704-29.696t29.696-72.704v-358.4q0-41.984-30.208-72.192t-72.192-30.208h-204.8v-153.6l-204.8 153.6h-204.8q-40.96 0-71.68 30.72t-30.72 71.68v358.4q0 41.984 30.208 72.192t72.192 30.208h614.4z" />
<glyph unicode="&#xe729;" glyph-name="trash" horiz-adv-x="809" d="M66.56 468.992q123.904-71.68 337.92-71.68t337.92 71.68l-55.296-497.664q-1.024-13.312-35.84-36.864-32.768-22.528-102.4-44.032t-144.384-21.504q-65.536 0-135.68 19.456t-110.080 46.080q-35.84 22.528-36.864 36.864zM566.272 776.192q96.256-18.432 161.792-56.32t65.536-72.704v-10.24q0-60.416-114.688-101.376-116.736-41.984-274.432-41.984t-274.432 41.984q-114.688 40.96-114.688 101.376v10.24q0 34.816 65.536 72.704t161.792 56.32l43.008 49.152q23.552 26.624 71.68 26.624h94.208q53.248 0 71.68-26.624zM510.976 661.504h86.016q-97.28 116.736-106.496 129.024-13.312 16.384-32.768 16.384h-104.448q-22.528 0-32.768-16.384l-108.544-129.024h86.016l65.536 67.584h83.968l63.488-67.584z" />
<glyph unicode="&#xe73c;" glyph-name="share" horiz-adv-x="850" d="M680.96 204.8q63.488 0 108.544-44.544t45.056-109.056q0-63.488-45.568-108.544t-108.032-45.056-108.032 45.056-45.568 108.544q0 3.072 1.024 13.312t1.024 13.312l-266.24 159.744q-44.032-32.768-94.208-32.768-62.464 0-108.032 45.056t-45.568 108.544 45.568 108.544 108.032 45.056q56.32 0 94.208-30.72l266.24 159.744q0 2.048-1.024 12.288t-1.024 12.288q0 63.488 45.568 108.544t108.032 45.056q63.488 0 108.544-44.544t45.056-109.056q0-63.488-45.568-108.544t-108.032-45.056q-53.248 0-92.16 32.768l-268.288-159.744q2.048-10.24 2.048-26.624 0-14.336-2.048-24.576l268.288-159.744q36.864 30.72 92.16 30.72v0z" />
<glyph unicode="&#xe73d;" glyph-name="basket" horiz-adv-x="952" d="M168.96 0q0 40.96 30.72 71.68t71.68 30.72q41.984 0 72.192-30.208t30.208-72.192q0-43.008-29.696-72.704t-72.704-29.696q-41.984 0-72.192 30.208t-30.208 72.192zM680.96 0q0 40.96 30.72 71.68t71.68 30.72q41.984 0 72.192-30.208t30.208-72.192q0-43.008-29.696-72.704t-72.704-29.696q-41.984 0-72.192 30.208t-30.208 72.192zM351.232 241.664q-18.432-5.12-27.136-10.752t-7.68-12.8q1.024-13.312 45.056-13.312h575.488v-77.824q0-20.48-20.48-20.48h-669.696q-20.48 0-20.48 20.48v77.824q-18.432 86.016-55.296 256t-55.296 256h-100.352v81.92q0 20.48 20.48 20.48h159.744q20.48 0 20.48-20.48v-88.064h720.896v-280.576q0-22.528-18.432-26.624l-567.296-161.792z" />
<glyph unicode="&#xe759;" glyph-name="left-circled" horiz-adv-x="973" d="M819.2 25.6q-138.24-138.24-332.8-138.24t-332.8 138.24-138.24 332.8q0 196.608 138.24 333.824 139.264 137.216 332.8 137.216t332.8-137.216q138.24-137.216 138.24-333.824 0-194.56-138.24-332.8zM226.304 98.304q108.544-108.544 260.096-108.544t260.096 108.544 108.544 260.096q0 153.6-108.544 261.12-109.568 107.52-260.096 107.52t-260.096-107.52q-108.544-107.52-108.544-261.12 0-151.552 108.544-260.096zM683.008 266.24h-208.896v-114.688l-194.56 206.848 194.56 208.896v-116.736h208.896v-184.32z" />
<glyph unicode="&#xe75d;" glyph-name="left-open" horiz-adv-x="380" d="M263.168 641.024q13.312 16.384 39.936 16.384 25.6 0 41.984-16.384 38.912-36.864 0-81.92l-190.464-200.704 190.464-198.656q38.912-45.056 0-81.92-16.384-16.384-40.96-16.384t-40.96 16.384l-231.424 241.664q-16.384 16.384-16.384 38.912 0 24.576 16.384 40.96 230.4 240.64 231.424 241.664v0z" />
<glyph unicode="&#xe75e;" glyph-name="right-open" horiz-adv-x="379" d="M115.712 641.024l231.424-241.664q16.384-16.384 16.384-40.96 0-22.528-16.384-38.912l-231.424-241.664q-16.384-16.384-40.96-16.384t-40.96 16.384q-36.864 36.864 0 81.92l190.464 198.656-190.464 200.704q-36.864 45.056 0 81.92 16.384 16.384 41.984 16.384 26.624 0 39.936-16.384v0z" />
<glyph unicode="&#xe760;" glyph-name="down-open-mini" horiz-adv-x="508" d="M430.080 481.28q22.528 26.624 49.152 0 26.624-22.528 0-49.152l-200.704-196.608q-22.528-22.528-49.152 0l-200.704 196.608q-26.624 26.624 0 49.152 24.576 24.576 51.2 0l174.080-159.744 176.128 159.744z" />
<glyph unicode="&#xe761;" glyph-name="left-open-mini" horiz-adv-x="302" d="M273.408 184.32q25.6-26.624 0-49.152-25.6-26.624-49.152 0l-196.608 198.656q-24.576 24.576 0 51.2l196.608 198.656q23.552 26.624 49.152 0 25.6-22.528 0-49.152l-159.744-176.128 159.744-174.080z" />
<glyph unicode="&#xe762;" glyph-name="right-open-mini" horiz-adv-x="302" d="M28.672 184.32l161.792 174.080-161.792 176.128q-26.624 26.624 0 49.152 26.624 26.624 49.152 0l196.608-198.656q24.576-26.624 0-51.2l-196.608-198.656q-22.528-26.624-49.152 0-26.624 22.528 0 49.152v0z" />
<glyph unicode="&#xe78d;" glyph-name="dot-3" horiz-adv-x="973" d="M128 471.040q47.104 0 79.872-32.768t32.768-79.872q0-45.056-33.28-78.848t-79.36-33.792-79.36 33.792-33.28 78.848q0 47.104 32.768 79.872t79.872 32.768zM486.4 471.040q47.104 0 79.872-32.768t32.768-79.872q0-45.056-34.304-78.848t-78.336-33.792-78.336 33.792-34.304 78.848q0 47.104 32.768 79.872t79.872 32.768zM844.8 471.040q47.104 0 79.872-32.768t32.768-79.872q0-45.056-33.28-78.848t-79.36-33.792-79.36 33.792-33.28 78.848q0 47.104 32.768 79.872t79.872 32.768v0z" />
<glyph unicode="&#xe834;" glyph-name="check_box" d="M426 127.333l384 384-60 62-324-324-152 152-60-60zM810 725.333c48 0 86-40 86-86v-596c0-46-38-86-86-86h-596c-48 0-86 40-86 86v596c0 46 38 86 86 86h596z" />
<glyph unicode="&#xe835;" glyph-name="check_box_outline_blank" d="M810 725.333c46 0 86-40 86-86v-596c0-46-40-86-86-86h-596c-46 0-86 40-86 86v596c0 46 40 86 86 86h596zM810 639.333h-596v-596h596v596z" />
<glyph unicode="&#xe836;" glyph-name="radio_button_unchecked" d="M512-0.667c188 0 342 154 342 342s-154 342-342 342-342-154-342-342 154-342 342-342zM512 767.333c236 0 426-190 426-426s-190-426-426-426-426 190-426 426 190 426 426 426z" />
<glyph unicode="&#xe837;" glyph-name="radio_button_checked" d="M512-0.667c188 0 342 154 342 342s-154 342-342 342-342-154-342-342 154-342 342-342zM512 767.333c236 0 426-190 426-426s-190-426-426-426-426 190-426 426 190 426 426 426zM512 555.333c118 0 214-96 214-214s-96-214-214-214-214 96-214 214 96 214 214 214z" />
<glyph unicode="&#xe85d;" glyph-name="assignment" d="M726 469.333v86h-428v-86h428zM726 299.333v84h-428v-84h428zM598 127.333v86h-300v-86h300zM512 725.333c-24 0-42-18-42-42s18-44 42-44 42 20 42 44-18 42-42 42zM810 725.333c46 0 86-40 86-86v-596c0-46-40-86-86-86h-596c-46 0-86 40-86 86v596c0 46 40 86 86 86h178c18 50 64 86 120 86s102-36 120-86h178z" />
<glyph unicode="&#xe873;" glyph-name="description" d="M554 469.333h236l-236 234v-234zM682 255.333v86h-340v-86h340zM682 85.333v86h-340v-86h340zM598 767.333l256-256v-512c0-46-40-84-86-84h-512c-46 0-86 38-86 84l2 684c0 46 38 84 84 84h342z" />
<glyph unicode="&#xe88e;" glyph-name="info" d="M554 469.333v86h-84v-86h84zM554 127.333v256h-84v-256h84zM512 767.333c236 0 426-190 426-426s-190-426-426-426-426 190-426 426 190 426 426 426z" />
<glyph unicode="&#xe89e;" glyph-name="launch" d="M598 725.333h298v-298h-86v152l-418-418-60 60 418 418h-152v86zM810 43.333v298h86v-298c0-46-40-86-86-86h-596c-48 0-86 40-86 86v596c0 46 38 86 86 86h298v-86h-298v-596h596z" />
<glyph unicode="&#xe89f;" glyph-name="open_with" d="M598 213.333v-128h128l-214-214-214 214h128v128h172zM982 341.333l-214-214v128h-128v172h128v128zM384 427.333v-172h-128v-128l-214 214 214 214v-128h128zM426 469.333v128h-128l214 214 214-214h-128v-128h-172z" />
<glyph unicode="&#xe8b3;" glyph-name="history" d="M512 511.333h64v-180l150-90-32-52-182 110v212zM554 725.333c212 0 384-172 384-384s-172-384-384-384c-106 0-200 42-270 112l60 62c54-54 128-88 210-88 166 0 300 132 300 298s-134 298-300 298-298-132-298-298h128l-172-172-4 6-166 166h128c0 212 172 384 384 384z" />
<glyph unicode="&#xe8ee;" glyph-name="view_headline" d="M170 639.333h684v-84h-684v84zM170 383.333v86h684v-86h-684zM170 43.333v84h684v-84h-684zM170 213.333v86h684v-86h-684z" />
<glyph unicode="&#xe8ef;" glyph-name="view_list" d="M384 639.333h512v-170h-512v170zM384 43.333v170h512v-170h-512zM384 255.333v172h512v-172h-512zM170 469.333v170h172v-170h-172zM170 43.333v170h172v-170h-172zM170 255.333v172h172v-172h-172z" />
<glyph unicode="&#xe8f0;" glyph-name="apps" d="M682 639.333h214v-256h-214v256zM426 383.333v256h214v-256h-214zM682 85.333v256h214v-256h-214zM426 85.333v256h214v-256h-214zM170 85.333v256h214v-256h-214zM170 383.333v256h214v-256h-214z" />
<glyph unicode="&#xe900;" glyph-name="attention" d="M998.963-50.176l-456.038 851.558c-6.349 11.008-18.125 17.818-30.925 17.818-12.851 0-24.627-6.81-30.925-17.818l-455.987-851.558c-6.195-10.803-6.093-24.115 0.256-34.816 6.4-10.803 18.022-17.408 30.618-17.408h912.077c12.544 0 24.269 6.605 30.618 17.408 6.349 10.701 6.451 24.013 0.307 34.816zM563.2 0h-102.4v102.4h102.4v-102.4zM563.2 179.2h-102.4v332.8h102.4v-332.8z" />
<glyph unicode="&#xe901;" glyph-name="right-bold" d="M896 358.4l-384-384v179.2h-358.4v409.6h358.4v179.2l384-384z" />
<glyph unicode="&#xe902;" glyph-name="download" d="M768 512h-153.6v307.2h-204.8v-307.2h-153.6l256-256 256 256zM990.106 177.562c-10.752 11.469-82.483 88.218-102.963 108.237-13.568 13.261-32.973 21.402-53.35 21.402h-89.958l156.877-153.293h-181.453c-5.222 0-9.933-2.662-12.288-6.81l-41.779-95.898h-306.381l-41.779 95.898c-2.355 4.147-7.117 6.81-12.288 6.81h-181.453l156.826 153.293h-89.907c-20.326 0-39.731-8.141-53.35-21.402-20.48-20.070-92.211-96.819-102.963-108.237-25.037-26.675-38.81-47.923-32.256-74.189l28.723-157.389c6.554-26.317 35.379-47.923 64.102-47.923h835.174c28.723 0 57.549 21.606 64.102 47.923l28.723 157.389c6.451 26.266-7.27 47.514-32.358 74.189z" />
<glyph unicode="&#xe903;" glyph-name="check" d="M424.653 0.102c-22.272 0-43.366 10.394-56.883 28.314l-182.938 241.715c-23.808 31.386-17.613 76.083 13.824 99.891 31.488 23.91 76.186 17.613 99.994-13.824l120.371-158.925 302.643 485.99c20.838 33.382 64.87 43.622 98.355 22.784 33.434-20.787 43.725-64.819 22.835-98.304l-357.581-573.952c-12.39-20.019-33.843-32.512-57.344-33.587-1.126-0.102-2.15-0.102-3.277-0.102z" />
<glyph unicode="&#xe904;" glyph-name="flash" d="M348.314-102.298c-9.933 6.502 161.434 366.592 155.546 382.413-5.939 15.821-187.648 73.523-196.506 101.325-8.909 27.802 358.758 445.798 368.435 437.709 9.626-8.090-160.205-370.586-155.597-382.413 4.659-11.776 190.874-71.885 196.506-101.325 5.683-29.44-358.502-444.211-368.384-437.709z" />
<glyph unicode="&#xe905;" glyph-name="help-circled" d="M512 849.92c-271.462 0-491.52-220.058-491.52-491.52s220.058-491.52 491.52-491.52c271.411 0 491.52 220.058 491.52 491.571 0 271.411-220.109 491.469-491.52 491.469zM504.269 71.731h-2.611c-40.038 1.178-68.301 30.72-67.123 70.195 1.126 38.81 30.054 67.021 68.762 67.021l2.355-0.102c41.165-1.178 69.12-30.413 67.942-71.014-1.178-38.912-29.594-66.099-69.325-66.099zM672.768 406.118c-9.421-13.312-30.106-30.003-56.218-50.33l-28.774-19.814c-15.77-12.288-25.293-23.91-28.826-35.226-2.867-8.909-4.198-11.315-4.454-29.491v-4.608h-109.824l0.307 9.318c1.382 38.093 2.304 60.621 18.125 79.206 24.832 29.082 79.616 64.41 81.92 65.894 7.885 5.888 14.49 12.595 19.405 19.814 11.52 15.923 16.589 28.416 16.589 40.602 0 17.101-5.018 32.922-15.002 46.899-9.626 13.619-27.904 20.378-54.323 20.378-26.214 0-44.186-8.294-54.886-25.395-11.059-17.459-16.64-35.84-16.64-54.63v-4.71h-113.203l0.205 4.915c2.918 69.274 27.699 119.194 73.472 148.326 28.826 18.483 64.717 27.853 106.547 27.853 54.682 0 100.966-13.312 137.318-39.526 36.915-26.573 55.603-66.406 55.603-118.323-0.051-29.030-9.216-56.32-27.341-81.152z" />
<glyph unicode="&#xe906;" glyph-name="info-circled" d="M512 849.92c-271.514 0-491.571-220.058-491.571-491.52 0-271.514 220.058-491.571 491.571-491.571 271.411 0 491.52 220.058 491.52 491.571 0 271.462-220.109 491.52-491.52 491.52zM557.875 672.461c47.923 0 62.003-27.802 62.003-59.597 0-39.68-31.744-76.39-85.965-76.39-45.363 0-66.97 22.784-65.638 60.518 0 31.795 26.573 75.469 89.6 75.469zM435.098 64c-32.768 0-56.678 19.917-33.792 107.213l37.53 154.88c6.502 24.781 7.578 34.714 0 34.714-9.779 0-52.326-17.101-77.414-33.997l-16.333 26.778c79.616 66.509 171.162 105.523 210.33 105.523 32.768 0 38.195-38.707 21.862-98.304l-43.008-162.816c-7.629-28.774-4.352-38.707 3.277-38.707 9.83 0 41.984 11.878 73.626 36.813l18.534-24.883c-77.466-77.414-161.894-107.213-194.611-107.213z" />
<glyph unicode="&#xe907;" glyph-name="newspaper" d="M716.8 614.4h-204.8v-102.4h204.8v102.4zM716.8 460.8h-204.8v-51.2h204.8v51.2zM460.8 614.4h-153.6v-204.8h153.6v204.8zM460.8 307.2h256v51.2h-256v-51.2zM614.4 204.8h102.4v51.2h-102.4v-51.2zM716.8 153.6h-409.6v-51.2h409.6v51.2zM563.2 256h-256v-51.2h256v51.2zM409.6 358.4h-102.4v-51.2h102.4v51.2zM870.4 819.2h-716.8c-28.314 0-51.2-22.886-51.2-51.2v-819.2c0-28.262 22.886-51.2 51.2-51.2h716.8c28.314 0 51.2 22.938 51.2 51.2v819.2c0 28.262-22.886 51.2-51.2 51.2zM819.2 0h-614.4v716.8h614.4v-716.8z" />
<glyph unicode="&#xe908;" glyph-name="tag" d="M992.666 849.664c-5.683 16.077-23.245 24.576-39.373 18.995s-24.627-23.296-19.046-39.424c47.565-136.704-46.848-238.797-118.835-293.478l-29.082 41.677c-9.779 13.978-31.642 25.6-48.64 25.805l-163.226-0.717c-16.998 0.307-42.24-7.475-56.166-17.306l-480.973-337.254c-23.296-16.384-28.928-48.486-12.646-71.885l218.573-312.73c16.384-23.296 42.547-20.48 65.894-4.198l480.973 337.306c13.824 9.779 29.798 30.874 35.43 47.002l51.098 161.024c5.632 16.077 2.202 40.602-7.578 54.579l-17.715 25.395c96.666 74.086 197.018 205.005 141.312 365.21zM768.87 370.534c-37.222-26.112-88.627-16.998-114.688 20.275-26.163 37.376-17.050 88.781 20.224 114.995 29.594 20.736 67.994 19.251 95.642-0.87-13.926-8.397-23.501-13.312-25.293-14.080-15.411-7.322-22.016-25.805-14.746-41.216 5.325-11.213 16.435-17.818 28.006-17.818 4.403 0 8.909 1.024 13.158 3.021 9.933 4.71 20.582 10.291 31.693 16.896 4.966-30.413-7.117-62.31-33.997-81.203z" />
<glyph unicode="&#xe909;" glyph-name="print" d="M76.851 563.2h870.4c29.184 0 24.422 31.13 9.882 36.198-14.592 5.069-176.282 66.202-204.493 66.202h-35.84v153.6h-409.6v-153.6h-35.789c-28.16 0-189.901-61.133-204.442-66.202s-19.302-36.198 9.882-36.198zM972.8 512h-921.6c-28.16 0-51.2-23.040-51.2-51.2v-256c0-28.211 23.040-51.2 51.2-51.2h116.89l-45.158-256h778.189l-45.21 256h116.89c28.211 0 51.2 22.989 51.2 51.2v256c0 28.16-22.989 51.2-51.2 51.2zM235.674 0l61.338 358.554h430.029l61.389-358.554h-552.755z" />
<glyph unicode="&#xe90a;" glyph-name="shuffle" d="M772.762 527.667h47.104v-146.534l204.134 206.029-204.186 206.080v-122.214h-47.104c-189.133 0-295.731-140.186-389.837-263.782-84.582-111.206-157.696-207.309-275.763-207.309h-107.11v-143.309h107.162c189.133 0 295.731 140.083 389.837 263.782 84.582 111.258 157.696 207.258 275.763 207.258zM276.992 437.35c8.090 10.394 16.179 21.094 24.422 31.898 19.968 26.317 41.165 54.016 64.102 81.715-67.686 63.181-149.248 109.773-258.355 109.773h-107.162v-143.309h107.162c67.942 0 120.934-31.898 169.83-80.077zM819.814 189.747h-47.104c-72.038 0-127.334 35.891-178.739 88.986-5.12-6.707-10.291-13.517-15.514-20.326-22.579-29.696-46.848-61.491-73.677-93.082 69.427-67.789 153.6-118.989 267.878-118.989h47.104v-122.778l204.237 206.080-204.186 206.080v-145.971z" />
<glyph unicode="&#xe90b;" glyph-name="tools" d="M160.512 517.632c47.77 37.12 87.398 11.52 140.288-49.715 5.939-6.912 13.926 1.178 18.483 5.12 4.506 3.994 74.291 66.816 77.722 69.683 3.379 3.021 7.475 8.653 2.099 14.95-5.478 6.298-25.293 32-38.042 48.691-92.57 121.088 253.235 203.213 200.141 204.493-27.034 0.717-135.475 1.997-151.706 0.205-65.69-6.912-148.173-68.301-189.696-96.922-54.323-37.171-74.598-58.982-77.926-62.003-15.36-13.414-2.458-44.39-30.31-68.813-29.44-25.754-47.821-6.246-64.87-21.197-8.448-7.475-32.102-25.19-38.861-31.078-6.81-5.99-8.038-16.077-1.075-24.115 0 0 64.717-71.475 70.144-77.824 5.376-6.246 20.019-11.674 29.030-3.635 9.062 7.987 32.358 28.314 36.25 31.898 3.994 3.379-2.56 44.083 18.33 60.262zM452.762 491.162c-6.144 7.117-13.773 7.322-20.326 1.485l-73.421-64.102c-5.786-5.12-6.605-14.49-1.382-20.48l424.653-483.277c9.933-11.418 27.136-12.595 38.451-2.714l49.664 41.626c11.366 9.984 12.544 27.29 2.662 38.81l-420.301 488.653zM1018.982 696.832c-3.789 25.293-16.896 20.019-23.706 9.318-6.81-10.803-36.915-56.422-49.306-77.107-12.288-20.48-42.598-60.979-99.021-20.992-58.778 41.523-38.349 70.502-28.109 90.010 10.291 19.61 41.882 74.598 46.438 81.408 4.557 6.912-0.768 26.982-18.995 18.586-18.278-8.397-129.178-52.48-144.538-115.712-15.718-64.307 13.158-121.805-43.52-178.893l-68.762-71.68 69.069-80.179 84.685 80.384c20.173 20.275 63.283 39.987 102.298 31.078 83.61-18.893 129.229 12.493 156.723 64.41 24.678 46.387 20.582 144.077 16.742 169.37zM140.237-2.714c-10.65-10.701-10.65-28.109 0-38.81l48.691-47.616c10.65-10.701 27.546-6.195 38.195 4.506l251.238 246.989-76.954 87.757-261.171-252.826z" />
<glyph unicode="&#x1f4c1;" glyph-name="folder" horiz-adv-x="1056" d="M992.256 512q29.696 0 39.424-10.752t7.68-38.4l-43.008-462.848q-2.048-27.648-13.824-39.424t-41.472-11.776h-825.344q-52.224 0-57.344 51.2l-43.008 462.848q-2.048 27.648 7.68 38.4t39.424 10.752h929.792zM957.44 624.64l10.24-40.96h-866.304l14.336 135.168q4.096 19.456 20.48 34.304t36.864 14.848h167.936q53.248 0 88.064-34.816l30.72-30.72q31.744-36.864 88.064-36.864h348.16q20.48 0 38.912-12.288t22.528-28.672v0z" />
<glyph unicode="&#x1f4c5;" glyph-name="calendar" horiz-adv-x="952" d="M834.56 716.8q43.008 0 72.704-29.696t29.696-72.704v-614.4q0-41.984-30.208-72.192t-72.192-30.208h-716.8q-40.96 0-71.68 30.72t-30.72 71.68v614.4q0 41.984 30.208 72.192t72.192 30.208h47.104v-102.4h163.84v102.4h296.96v-102.4h163.84v102.4h45.056zM834.56 409.6h-716.8v-409.6h716.8v409.6zM281.6 645.12h-71.68v174.080h71.68v-174.080zM742.4 819.2v-174.080h-71.68v174.080h71.68z" />
<glyph unicode="&#x1f4cb;" glyph-name="clipboard" horiz-adv-x="748" d="M87.040-153.6q-29.696 0-50.688 20.992t-20.992 50.688v778.24q0 28.672 21.504 50.176t50.176 21.504l61.44-153.6h450.56l61.44 153.6q28.672 0 50.176-21.504t21.504-50.176v-778.24q0-29.696-20.992-50.688t-50.688-20.992h-573.44zM558.080 665.6h-368.64l-45.056 102.4h110.592l36.864 102.4h163.84l36.864-102.4h112.64l-47.104-102.4z" />
<glyph unicode="&#x1f50d;" glyph-name="search" horiz-adv-x="839" d="M805.888 79.872q30.72-34.816 6.144-63.488l-47.104-47.104q-36.864-32.768-69.632 0l-194.56 194.56q-74.752-43.008-159.744-43.008-131.072 0-228.352 97.28t-97.28 228.352 92.16 224.256 223.232 93.184q130.048 0 229.376-97.28 98.304-97.28 98.304-228.352 0-91.136-47.104-165.888zM111.616 446.464q0-90.112 69.632-159.744t159.744-69.632 154.624 64.512 64.512 156.672q0 89.088-69.632 158.72-68.608 68.608-159.744 68.608-90.112 0-154.624-64.512t-64.512-154.624v0z" />
</font>
</defs>
</svg>
